Заповедник Брянский лес. В поисках черного аиста (Игорь Чернышов) [2013, познавательный, HDTV 1080i]

Страницы:  1

Ответить
Автор
Сообщение

karatak1

Стаж: 9 лет 10 месяцев

Сообщений: 670


karatak1 · 25-Ноя-17 21:04 (1 год 5 месяцев назад)

Заповедник Брянский лес. В поисках черного аиста
Год выпуска: 2013
Страна: Россия
Студия: RTG TV
Жанр: познавательный
Продолжительность: 00:37:39
Перевод: Не требуется
Режиссер: Игорь Чернышов
Описание: Заповедник «Брянский лес» — уголок нетронутой дикой природы России, где сохранились вековые деревья, где можно встретить редких животных. В непроходимых чащах брянского леса обитают птицы, которых считают почти мифическими. Черных аистов мало кто видел, а орнитологи считают за счастье встречу с этими пернатыми. Для гнездования черные аисты выбирают самые глухие непроходимые места. Человеку добраться туда непросто, а иногда вообще невозможно.
Тип релиза: HDTV 1080i
Контейнер: TS
Видео: AVC, PAL, 1920x1080, 16x9, 5374 Кbps, 25fps
Аудио: Русский, MP2, 2Ch, 48KHz, 192kbps
MediaInfo
Общее
Идентификатор : 1 (0x1)
Полное имя : H:\Заповедник Брянский лес. В поисках черного аиста (02).ts
Формат : MPEG-TS
Размер файла : 1,54 Гбайт
Продолжительность : 37 м. 39 с.
Режим общего битрейта : Переменный
Общий поток : 5857 Кбит/сек
Видео
Идентификатор : 256 (0x100)
Идентификатор меню : 1 (0x1)
Формат : AVC
Формат/Информация : Advanced Video Codec
Профиль формата : [email protected]
Параметр CABAC формата : Да
Параметр ReFrames формата : 4 кадра
Идентификатор кодека : 27
Продолжительность : 37 м. 39 с.
Битрейт : 5374 Кбит/сек
Ширина : 1920 пикселей
Высота : 1080 пикселей
Соотношение сторон : 16:9
Частота кадров : 25,000 кадров/сек
Цветовое пространство : YUV
Субдискретизация насыщенности : 4:2:0
Битовая глубина : 8 бит
Тип развёртки : Чересстрочная
Метод сохранения типа развёртки : Раздельные поля
Порядок развёртки : Верхнее поле первое
Бит/(Пиксели*Кадры) : 0.104
Размер потока : 1,41 Гбайт (92%)
Цветовой диапазон : Limited
Основные цвета : BT.709
Характеристики трансфера : BT.709
Коэффициенты матрицы : BT.709
Аудио
Идентификатор : 257 (0x101)
Идентификатор меню : 1 (0x1)
Формат : MPEG Audio
Версия формата : Version 1
Профиль формата : Layer 2
Идентификатор кодека : 3
Продолжительность : 37 м. 39 с.
Вид битрейта : Постоянный
Битрейт : 192 Кбит/сек
Каналы : 2 канала
Частота : 48,0 КГц
Метод сжатия : С потерями
Размер потока : 51,7 Мбайт (3%)
Язык : English
Скриншоты
Download
Для скачивания .torrent файлов необходима регистрация
Сайт не распространяет и не хранит электронные версии произведений, а лишь предоставляет доступ к создаваемому пользователями каталогу ссылок на торрент-файлы, которые содержат только списки хеш-сумм
[Профиль]  [ЛС] 
 
Ответить
Loading...
Error